[韩剧][Netflix][王国.李尸朝鲜.킹덤.Kingdom][全1-6集][韩语.中英日韩等多国字幕]720P+1080P+2160P下载

A+A
8
126,809
[韩剧][Netflix][王国.李尸朝鲜.킹덤.Kingdom][全1-6集][韩语.中英日韩等多国字幕]720P+1080P+2160P下载
[韩剧][Netflix][王国.李尸朝鲜.킹덤.Kingdom][全1-6集][韩语.中英日韩等多国字幕]720P+1080P+2160P下载

王国 킹덤 Kingdom (2019)

导演: 金成勋
编剧: 金恩熙
主演: 朱智勋 / 裴斗娜 / 柳承龙 / 金相浩 / 许峻豪 / 金成圭 / 全锡浩 / 金惠濬 / 郑锡元 / 陈善圭 / 秋宪晔 / 朱光弦
类型: 剧情 / 动作 / 惊悚
制片国家/地区: 韩国 / 美国
语言: 韩语
首播: 2019-01-25(韩国)
集数: 6
单集片长: 50分钟
又名: 李尸朝鲜(台) / Kingdom

剧情简介

Netflix原创剧集《李尸朝鲜》是改编至人气网络漫画《神的国度》,并把背景设定于15至16世纪的古代朝鲜,故事讲述已驾崩的朝鲜国王于某日死而复生,而民间亦开始流传神祕的瘟疫~染病者举止变得怪异,无预警地四处袭击正常的百姓,更凶残地进食人肉,整个国家陷入纷乱的局面,变成丧尸横行的国度!

资源信息

Netflix版片源 内含官方中字 自带多国语言字幕 自行切换 详见下面参数列表
Video
ID : 1
Format : AVC
Format/Info : Advanced Video Codec
Format profile : Main@L4
Format settings : CABAC / 3 Ref Frames
Format settings, CABAC : Yes
Format settings, ReFrames : 3 frames
Codec ID : V_MPEG4/ISO/AVC
Duration : 52 min 31 s
Bit rate mode : Variable
Bit rate : 6 810 kb/s
Maximum bit rate : 10.2 Mb/s
Width : 1 920 pixels
Height : 1 080 pixels
Display aspect ratio : 16:9
Frame rate mode : Constant
Frame rate : 23.976 (24000/1001) FPS
Color space : YUV
Chroma subsampling : 4:2:0
Bit depth : 8 bits
Scan type : Progressive
Bits/(Pixel*Frame) : 0.137
Stream size : 2.47 GiB (95%)
Writing library : x264 core 148 r2715 7e75228
Encoding settings : cabac=1 / ref=3 / deblock=1:0:0 / analyse=0x1:0x111 / me=umh / subme=10 / psy=1 / psy_rd=1.00:0.00 / mixed_ref=1 / me_range=24 / chroma_me=1 / trellis=2 / 8x8dct=0 / cqm=0 / deadzone=21,11 / fast_pskip=1 / chroma_qp_offset=-2 / threads=6 / lookahead_threads=1 / sliced_threads=0 / nr=0 / decimate=1 / interlaced=0 / bluray_compat=0 / stitchable=1 / constrained_intra=0 / bframes=2 / b_pyramid=0 / b_adapt=2 / b_bias=0 / direct=3 / weightb=1 / open_gop=0 / weightp=2 / keyint=48 / keyint_min=25 / scenecut=0 / intra_refresh=0 / rc_lookahead=48 / rc=2pass / mbtree=1 / bitrate=6810 / ratetol=1.0 / qcomp=0.50 / qpmin=6 / qpmax=51 / qpstep=4 / cplxblur=20.0 / qblur=0.5 / vbv_maxrate=10215 / vbv_bufsize=13620 / nal_hrd=vbr / filler=0 / ip_ratio=1.40 / aq=1:1.00
Default : Yes
Forced : No

Audio
ID : 2
Format : AC-3
Format/Info : Audio Coding 3
Commercial name : Dolby Digital
Codec ID : A_AC3
Duration : 52 min 31 s
Bit rate mode : Constant
Bit rate : 384 kb/s
Channel(s) : 6 channels
Channel layout : L R C LFE Ls Rs
Sampling rate : 48.0 kHz
Frame rate : 31.250 FPS (1536 SPF)
Bit depth : 16 bits
Compression mode : Lossy
Stream size : 144 MiB (5%)
Title : Korean
Language : Korean
Service kind : Complete Main
Default : No
Forced : No

Text #1
ID : 3
Format : UTF-8
Codec ID : S_TEXT/UTF8
Codec ID/Info : UTF-8 Plain Text
Duration : 51 min 39 s
Bit rate : 33 b/s
Count of elements : 414
Stream size : 12.7 KiB (0%)
Title : English
Language : English
Default : No
Forced : No

Text #2
ID : 4
Format : UTF-8
Codec ID : S_TEXT/UTF8
Codec ID/Info : UTF-8 Plain Text
Duration : 51 min 48 s
Bit rate : 35 b/s
Count of elements : 417
Stream size : 13.3 KiB (0%)
Title : Castilian
Language : Spanish
Default : No
Forced : No

Text #3
ID : 5
Format : UTF-8
Codec ID : S_TEXT/UTF8
Codec ID/Info : UTF-8 Plain Text
Duration : 51 min 48 s
Bit rate : 33 b/s
Count of elements : 440
Stream size : 12.9 KiB (0%)
Title : Spanish
Language : Spanish
Default : No
Forced : No

Text #4
ID : 6
Format : UTF-8
Codec ID : S_TEXT/UTF8
Codec ID/Info : UTF-8 Plain Text
Duration : 51 min 48 s
Bit rate : 34 b/s
Count of elements : 416
Stream size : 13.2 KiB (0%)
Title : French
Language : French
Default : No
Forced : No

Text #5
ID : 7
Format : UTF-8
Codec ID : S_TEXT/UTF8
Codec ID/Info : UTF-8 Plain Text
Duration : 51 min 48 s
Bit rate : 33 b/s
Count of elements : 407
Stream size : 12.7 KiB (0%)
Title : German
Language : German
Default : No
Forced : No

Text #6
ID : 8
Format : UTF-8
Codec ID : S_TEXT/UTF8
Codec ID/Info : UTF-8 Plain Text
Duration : 51 min 48 s
Bit rate : 34 b/s
Count of elements : 416
Stream size : 13.1 KiB (0%)
Title : Italian
Language : Italian
Default : No
Forced : No

Text #7
ID : 9
Format : UTF-8
Codec ID : S_TEXT/UTF8
Codec ID/Info : UTF-8 Plain Text
Duration : 51 min 48 s
Bit rate : 32 b/s
Count of elements : 417
Stream size : 12.2 KiB (0%)
Title : Portuguese
Language : Portuguese
Default : No
Forced : No

Text #8
ID : 10
Format : UTF-8
Codec ID : S_TEXT/UTF8
Codec ID/Info : UTF-8 Plain Text
Duration : 51 min 49 s
Bit rate : 31 b/s
Count of elements : 417
Stream size : 12.1 KiB (0%)
Title : Brazilian Portuguese
Language : Portuguese
Default : No
Forced : No

Text #9
ID : 11
Format : UTF-8
Codec ID : S_TEXT/UTF8
Codec ID/Info : UTF-8 Plain Text
Duration : 51 min 48 s
Bit rate : 30 b/s
Count of elements : 405
Stream size : 11.5 KiB (0%)
Title : Polish
Language : Polish
Default : No
Forced : No

Text #10
ID : 12
Format : UTF-8
Codec ID : S_TEXT/UTF8
Codec ID/Info : UTF-8 Plain Text
Duration : 51 min 48 s
Bit rate : 34 b/s
Count of elements : 395
Stream size : 13.1 KiB (0%)
Title : Turkish
Language : Turkish
Default : No
Forced : No

Text #11
ID : 13
Format : UTF-8
Codec ID : S_TEXT/UTF8
Codec ID/Info : UTF-8 Plain Text
Duration : 51 min 48 s
Bit rate : 34 b/s
Count of elements : 409
Stream size : 13.1 KiB (0%)
Title : Swedish
Language : Swedish
Default : No
Forced : No

Text #12
ID : 14
Format : UTF-8
Codec ID : S_TEXT/UTF8
Codec ID/Info : UTF-8 Plain Text
Duration : 51 min 48 s
Bit rate : 33 b/s
Count of elements : 416
Stream size : 12.7 KiB (0%)
Title : Danish
Language : Danish
Default : No
Forced : No

Text #13
ID : 15
Format : UTF-8
Codec ID : S_TEXT/UTF8
Codec ID/Info : UTF-8 Plain Text
Duration : 51 min 48 s
Bit rate : 31 b/s
Count of elements : 370
Stream size : 12.0 KiB (0%)
Title : Finnish
Language : Finnish
Default : No
Forced : No

Text #14
ID : 16
Format : UTF-8
Codec ID : S_TEXT/UTF8
Codec ID/Info : UTF-8 Plain Text
Duration : 51 min 48 s
Bit rate : 31 b/s
Count of elements : 368
Stream size : 12.0 KiB (0%)
Title : Dutch
Language : Dutch
Default : No
Forced : No

Text #15
ID : 17
Format : UTF-8
Codec ID : S_TEXT/UTF8
Codec ID/Info : UTF-8 Plain Text
Duration : 51 min 48 s
Bit rate : 33 b/s
Count of elements : 415
Stream size : 12.6 KiB (0%)
Title : Norwegian
Language : Norwegian
Default : No
Forced : No

Text #16
ID : 18
Format : UTF-8
Codec ID : S_TEXT/UTF8
Codec ID/Info : UTF-8 Plain Text
Duration : 51 min 48 s
Bit rate : 51 b/s
Count of elements : 415
Stream size : 19.4 KiB (0%)
Title : Russian
Language : Russian
Default : No
Forced : No

Text #17
ID : 19
Format : UTF-8
Codec ID : S_TEXT/UTF8
Codec ID/Info : UTF-8 Plain Text
Duration : 51 min 48 s
Bit rate : 57 b/s
Count of elements : 417
Stream size : 22.0 KiB (0%)
Title : Greek
Language : Greek
Default : No
Forced : No

Text #18
ID : 20
Format : UTF-8
Codec ID : S_TEXT/UTF8
Codec ID/Info : UTF-8 Plain Text
Duration : 51 min 48 s
Bit rate : 48 b/s
Count of elements : 417
Stream size : 18.3 KiB (0%)
Title : Hebrew
Language : Hebrew
Default : No
Forced : No

Text #19
ID : 21
Format : UTF-8
Codec ID : S_TEXT/UTF8
Codec ID/Info : UTF-8 Plain Text
Duration : 51 min 48 s
Bit rate : 58 b/s
Count of elements : 415
Stream size : 22.3 KiB (0%)
Title : Arabic
Language : Arabic
Default : No
Forced : No

Text #20
ID : 22
Format : UTF-8
Codec ID : S_TEXT/UTF8
Codec ID/Info : UTF-8 Plain Text
Duration : 51 min 48 s
Bit rate : 41 b/s
Count of elements : 417
Stream size : 15.7 KiB (0%)
Title : Romanian
Language : Romanian
Default : No
Forced : No

Text #21
ID : 23
Format : UTF-8
Codec ID : S_TEXT/UTF8
Codec ID/Info : UTF-8 Plain Text
Duration : 51 min 48 s
Bit rate : 32 b/s
Count of elements : 415
Stream size : 12.4 KiB (0%)
Title : Indonesian
Language : Indonesian
Default : No
Forced : No

Text #22
ID : 24
Format : UTF-8
Codec ID : S_TEXT/UTF8
Codec ID/Info : UTF-8 Plain Text
Duration : 51 min 49 s
Bit rate : 46 b/s
Count of elements : 397
Stream size : 17.8 KiB (0%)
Title : Vietnamese
Language : Vietnamese
Default : No
Forced : No

Text #23
ID : 25
Format : UTF-8
Codec ID : S_TEXT/UTF8
Codec ID/Info : UTF-8 Plain Text
Duration : 51 min 48 s
Bit rate : 94 b/s
Count of elements : 417
Stream size : 36.0 KiB (0%)
Title : Thai
Language : Thai
Default : No
Forced : No

Text #24
ID : 26
Format : UTF-8
Codec ID : S_TEXT/UTF8
Codec ID/Info : UTF-8 Plain Text
Duration : 47 min 25 s
Bit rate : 0 b/s
Count of elements : 14
Stream size : 264 Bytes (0%)
Title : Korean [Forced]
Language : Korean
Default : No
Forced : Yes

Text #25
ID : 27
Format : UTF-8
Codec ID : S_TEXT/UTF8
Codec ID/Info : UTF-8 Plain Text
Duration : 49 min 13 s
Bit rate : 74 b/s
Count of elements : 592
Stream size : 26.7 KiB (0%)
Title : Korean [SDH]
Language : Korean
Default : No
Forced : No

Text #26
ID : 28
Format : UTF-8
Codec ID : S_TEXT/UTF8
Codec ID/Info : UTF-8 Plain Text
Duration : 51 min 48 s
Bit rate : 36 b/s
Count of elements : 418
Stream size : 13.9 KiB (0%)
Title : Chinese (Simplified)
Language : Chinese
Default : No
Forced : No

Text #27
ID : 29
Format : UTF-8
Codec ID : S_TEXT/UTF8
Codec ID/Info : UTF-8 Plain Text
Duration : 51 min 48 s
Bit rate : 36 b/s
Count of elements : 413
Stream size : 13.9 KiB (0%)
Title : Chinese (Traditional)
Language : Chinese
Default : No
Forced : No

Text #28
ID : 30
Format : UTF-8
Codec ID : S_TEXT/UTF8
Codec ID/Info : UTF-8 Plain Text
Duration : 51 min 48 s
Bit rate : 36 b/s
Count of elements : 396
Stream size : 13.9 KiB (0%)
Title : Japanese
Language : Japanese
Default : No
Forced : No

BT/电驴ed2k/磁力magnet/迅雷thunder/百度云网盘下载(隐藏是为了防止资源和谐过快):
在线版本
[韩剧][Netflix][王国.李尸朝鲜.킹덤.Kingdom][2019][全1-6集][韩语中字][720P][片头有广告] 百度云网盘在线观看下载 提取码:🔒解锁教程
[韩剧][Netflix][王国.李尸朝鲜.킹덤.Kingdom][2019][全1-6集][韩语中字][HD1080P][纯净版][3.6G] 百度云网盘在线观看下载 提取码:🔒解锁教程
[韩剧][Netflix][王国.李尸朝鲜.킹덤.Kingdom][2019][全1-6集][韩语中字][1080P][纯净版][10G] 百度云网盘在线观看下载 提取码:🔒解锁教程

下载版本
[韩剧][Netflix][王国.李尸朝鲜.킹덤.Kingdom][2019][S01E01-06][韩语中字][720P][片头有广告] 下载 提取码:🔒解锁教程
[韩剧][王国.李尸朝鲜.킹덤.Kingdom][2019][S01E01-06][WEBRip.DD5.1.x264][韩语.内封官方中字等28种字幕][Netflix][720p][纯净版] 下载 提取码:🔒解锁教程
[韩剧][王国.李尸朝鲜.킹덤.Kingdom][2019][S01E01-06][WEBRip.DD5.1.x264][韩语.内封官方中字等28种字幕][Netflix][1080p][纯净版] 下载 提取码:🔒解锁教程
[韩剧][王国.李尸朝鲜.킹덤.Kingdom][2019][S01E01-06][WEBRip.DDP5.1.x264][韩语.内封官方中字等28种字幕][Netflix][2160p][纯净版] 下载 提取码:🔒解锁教程
[韩剧][王国.李尸朝鲜.킹덤.Kingdom][2019][S01][E01-02][Netflix][720p+1080p+2160p][简体繁体中文外挂字幕] 下载 提取码:🔒解锁教程
[韩剧][王国.李尸朝鲜.킹덤.Kingdom][2019][S01][E03-04][Netflix][720p+1080p+2160p][简体繁体中文外挂字幕] 下载 提取码:🔒解锁教程
[韩剧][王国.李尸朝鲜.킹덤.Kingdom][2019][S01][E05-06][Netflix][720p+1080p+2160p][简体繁体中文外挂字幕] 下载 提取码:🔒解锁教程
[韩剧][Netflix][王国.李尸朝鲜.킹덤.Kingdom][2019][第一季全1-6集.S01E01-06][中文字幕][WEB-DL.DD5.1.H264-VIP][1080P][10G][压缩包.有密码][纯净版] 百度云网盘下载 提取码:🔒解锁教程

PS:如果链接失效,请告诉我。记得要点一点文章钥匙下面的广告(¯﹃¯)

清新范 获取提取码的步骤(解锁方法 备用):
关注公众号并回复6223,打开推送图文并点击推文内广告激活文章钥匙 → 返回这里,将推文内的文章钥匙填入下方输入框,点击解锁
关注公众号的方式:① 微信(WeChat)内搜索清新范qxfuner ② 微信扫一扫左侧二维码

打赏&福利

每日领取下方的支付宝红包也算是对我的一种支持,让我更新更有动力哟~
PS:①可将领到的红包打赏给我的支付宝(¯﹃¯)
②手机打赏方法:保存二维码图片到手机,使用微信或支付宝扫一扫
③自愿打赏,金额随意
支付宝红包领取方式:
①直接扫码领红包
②长按复制此消息,打开支付宝领红包!cq1Kn138HZ
③打开支付宝首页搜索(8190938)就能领红包
PS:每天都可以领取1次

8
评论

avatar
4 评论
4 回复
3 关注者
 
最多互动的评论
最热评论
  订阅  
提醒
dsj
游客
dsj

百度网盘太慢了,建议出迅雷资源

寒冰
游客
寒冰

假的,是2018年的电影版

没国语版
游客
没国语版

国语都看完了,你这还是韩语版?

求英文字幕
游客
求英文字幕

多国字幕的下了还是只有中文字幕的!